Hinatachan123

04/08/2019

יש אנימה ישנה שאני מתרגמת והמסך בו רואים אותה הוא יותר לאורך
מאשר לרוחב וכשקידדתי את הפרק הראשון זה עיוות לי את הפרק לכמו
כל אנימה רגילה ולא ישנה לרוחב... מה לעשות? אשמח ממש לעזרה:pray:
דוגמא:
זה הרגיל שהוא לאורך - המקור
et13nfd.jpg

וזה לאחר הקידוד - הרחיב את הוידאו:
3guete3.jpg

flikhamud45

04/08/2019

תשלחי את הקוד שבו השתמשת בקידוד 

Hinatachan123

04/08/2019

צוטט: flikhamud45

תשלחי את הקוד שבו השתמשת בקידוד 

קוד? הכוונה לסקריפט?

flikhamud45

04/08/2019

צוטט: Hinatachan123

קוד? הכוונה לסקריפט?

כן

Hinatachan123

04/08/2019

סבבה, רק איך? כאילו למייל מסויים או משהו?

 

MrNak

04/08/2019

צוטט: Hinatachan123

סבבה, רק איך? כאילו למייל מסויים או משהו?

 

תשלחי פה פשוט

לא את הקובץ, מה שרשום בתוכו

Hinatachan123

04/08/2019

סבבה:
zj0muit.jpg

Hinatachan123

04/08/2019

צוטט: MrNak

תשלחי פה פשוט

לא את הקובץ, מה שרשום בתוכו

הנה למעלה

MrNak

04/08/2019

צוטט: Hinatachan123

סבבה:
zj0muit.jpg

תמחקי את ה fpsnum=24000, fpsden=1001

תנסי לפחות

אני לא משתמש בזה ועובד לי טוב, אבל אני יודע שיש הרבה שעובדים עם זה אז לא בטוח שזאת הבעיה

Hinatachan123

04/08/2019

צוטט: flikhamud45

כן

למעלה
אגב יכול להיות שזה בגלל ששמרתי את זה כ-mp4 ולא כ- mkv?

Hinatachan123

04/08/2019

צוטט: MrNak

תמחקי את ה fpsnum=24000, fpsden=1001

תנסי לפחות

אני לא משתמש בזה ועובד לי טוב, אבל אני יודע שיש הרבה שעובדים עם זה אז לא בטוח שזאת הבעיה

אוקיי אנסה, תודה רבה

Hinatachan123

04/08/2019

צוטט: MrNak

תמחקי את ה fpsnum=24000, fpsden=1001

תנסי לפחות

אני לא משתמש בזה ועובד לי טוב, אבל אני יודע שיש הרבה שעובדים עם זה אז לא בטוח שזאת הבעיה

צוטט: flikhamud45

תשלחי את הקוד שבו השתמשת בקידוד 

לא עבד... לנסות את הקטע עם הפורמטים? של ה- mp4 וכו?

MrNak

04/08/2019

צוטט: Hinatachan123

לא עבד... לנסות את הקטע עם הפורמטים? של ה- mp4 וכו?

את יכולה לנסות..

flikhamud45

04/08/2019

צוטט: Hinatachan123

לא עבד... לנסות את הקטע עם הפורמטים? של ה- mp4 וכו?

זה שזה MP4 ולא MKV לא אמור לשפיע

Hinatachan123

04/08/2019

צוטט: flikhamud45

זה שזה MP4 ולא MKV לא אמור לשפיע

אז מה עושים?:sob:

gilorhatahat

04/08/2019

תוכלי ללחוץ media info על הפרק ולהעתיק פה את המאפיינים שזה מראה לך?
זה ממש מוזר כי בפרק כתוב שזה 1080P שזה בהחלט רזולוציה של וידאו רחב ולא ריבוע כמו שהראת

Hinatachan123

04/08/2019

צוטט: gilorhatahat

תוכלי ללחוץ media info על הפרק ולהעתיק פה את המאפיינים שזה מראה לך?
זה ממש מוזר כי בפרק כתוב שזה 1080P שזה בהחלט רזולוציה של וידאו רחב ולא ריבוע כמו שהראת

אין בעיה מיד מעתיקה!

Hinatachan123

04/08/2019

צוטט: gilorhatahat

תוכלי ללחוץ media info על הפרק ולהעתיק פה את המאפיינים שזה מראה לך?
זה ממש מוזר כי בפרק כתוב שזה 1080P שזה בהחלט רזולוציה של וידאו רחב ולא ריבוע כמו שהראת

General
Unique ID                   : 187362359267910175059082636681725443977 (0x8CF4AD856202616688013FD695157F89)
Complete name               : C:\Users\ASUS\Desktop\ha atar Romantic - sub\kaleido star\kaleido star - haprakim lelo tergum\Kaleido Star.2003.BDrip.EP01.HEVC.Flac.1080p-CalChi.mkv
Format                      : Matroska
Format version              : Version 4
File size                   : 533 MiB
Duration                    : 23 min 0 s
Overall bit rate mode       : Variable
Overall bit rate            : 3 236 kb/s
Encoded date                : UTC 2016-01-17 09:11:22
Writing application         : mkvmerge v8.8.0 ('Wind at my back') 64bit
Writing library             : libebml v1.3.3 + libmatroska v1.4.4

Video
ID                          : 1
Format                      : HEVC
Format/Info                 : High Efficiency Video Coding
Format profile              : Main@L4@Main
Codec ID                    : V_MPEGH/ISO/HEVC
Duration                    : 23 min 0 s
Bit rate                    : 2 675 kb/s
Width                       : 1 440 pixels
Height                      : 1 080 pixels
Display aspect ratio        : 4:3
Frame rate mode             : Constant
Frame rate                  : 23.976 (24000/1001) FPS
Color space                 : YUV
Chroma subsampling          : 4:2:0
Bit depth                   : 8 bits
Bits/(Pixel*Frame)          : 0.072
Stream size                 : 440 MiB (83%)
Writing library             : x265 1.8+2-55a4a9b920ff:[Windows][GCC 5.2.0][64 bit] 8bit+10bit+12bit
Encoding settings           : wpp / ctu=32 / min-cu-size=8 / max-tu-size=32 / tu-intra-depth=1 / tu-inter-depth=1 / me=1 / subme=4 / merange=25 / no-rect / no-amp / max-merge=4 / temporal-mvp / no-early-skip / rdpenalty=2 / no-tskip / no-tskip-fast / no-strong-intra-smoothing / no-lossless / no-cu-lossless / no-constrained-intra / no-fast-intra / open-gop / no-temporal-layers / interlace=0 / keyint=480 / min-keyint=1 / scenecut=40 / rc-lookahead=40 / lookahead-slices=0 / bframes=4 / bframe-bias=0 / b-adapt=2 / ref=5 / limit-refs=0 / weightp / no-weightb / aq-mode=1 / qg-size=32 / aq-strength=1.05 / cbqpoffs=0 / crqpoffs=0 / rd=3 / psy-rd=0.80 / rdoq-level=0 / psy-rdoq=0.00 / signhide / deblock=-2:-2 / sao / no-sao-non-deblock / b-pyramid / cutree / rc=crf / crf=18.0 / qcomp=0.70 / qpmin=0 / qpmax=51 / qpstep=4 / ipratio=1.40 / pbratio=1.30
Default                     : Yes
Forced                      : No

Audio
ID                          : 2
Format                      : FLAC
Format/Info                 : Free Lossless Audio Codec
Codec ID                    : A_FLAC
Duration                    : 23 min 0 s
Bit rate mode               : Variable
Bit rate                    : 559 kb/s
Channel(s)                  : 2 channels
Channel layout              : L R
Sampling rate               : 48.0 kHz
Frame rate                  : 11.719 FPS (4096 SPF)
Bit depth                   : 16 bits
Compression mode            : Lossless
Stream size                 : 92.0 MiB (17%)
Writing library             : libFLAC 1.2.1 (UTC 2007-09-17)
Default                     : Yes
Forced                      : No

flikhamud45

04/08/2019

בדקת שזה משנה לזה את הרזולציה גם על הקובץ עצמו? כי יכול להיות שכאת מעלה את הקובץ לגוגל דרייב הוא זה שמשנה לא את הרזולוציה ולא הקידוד עצמו.

Hinatachan123

04/08/2019

כן כן לקובץ עצמו הוא משנה את הרוזולוציה אני בדקתי אני בטוחה

צוטט: flikhamud45

בדקת שזה משנה לזה את הרזולציה גם על הקובץ עצמו? כי יכול להיות שכאת מעלה את הקובץ לגוגל דרייב הוא זה שמשנה לא את הרזולוציה ולא הקידוד עצמו.

תוכן

Hinatachan123

04/08/2019

יש משהו שאני יכולה לעשות כדי לשנות את הרזולוציה? כאילו איזשהי הגדרה של הריבוע הזה?
 

צוטט: flikhamud45

בדקת שזה משנה לזה את הרזולציה גם על הקובץ עצמו? כי יכול להיות שכאת מעלה את הקובץ לגוגל דרייב הוא זה שמשנה לא את הרזולוציה ולא הקידוד עצמו.

צוטט: gilorhatahat

תוכלי ללחוץ media info על הפרק ולהעתיק פה את המאפיינים שזה מראה לך?
זה ממש מוזר כי בפרק כתוב שזה 1080P שזה בהחלט רזולוציה של וידאו רחב ולא ריבוע כמו שהראת